Gustavo Dudamel: Mahler Symphony No. 2 “Resurrection” (BBC Proms 2011, London) en Youtube. Descarga con Orbitdownloader.

Un concierto S E N S A C I O N A L, disponible íntegro (1h 33m) y en formato HD 720p, que podéis descargar fácilmente para reproducirlo en vuestro sistema multimedia. Todavía no se ha editado para su venta, así que sólo se dispone del vídeo reprocesado tras ser subido.

YouTube Gustavo Dudamel, SBSOV and the NYCGB @ BBC Proms 2011 / Mahler 2nd Symphony “The Resurrection”

YouTube: Gustavo Dudamel, SBSOV and the NYCGB @ BBC Proms 2011 / Mahler 2nd Symphony “The Resurrection”

Historias Relacionadas

Acerca de maty
Nauscopio Scipiorum

9 Responses to Gustavo Dudamel: Mahler Symphony No. 2 “Resurrection” (BBC Proms 2011, London) en Youtube. Descarga con Orbitdownloader.

  1. maty dice:

    Descarga con orbitdownloader.com y su funcionalidad Grab++

  2. maty dice:

    Una vez descargado, reproducido desde el Media Player Classic o cualquier otro reproductor (The KMPlayer, BS.Player …)

    General
    Complete name : E:\DESCARGAS\Mahler Resurrection – Dudamel, Simon Bolivar.mp4
    Format : MPEG-4
    Format profile : Base Media / Version 2
    Codec ID : mp42
    File size : 1.62 GiB
    Duration : 1h 33mn
    Overall bit rate mode : Variable
    Overall bit rate : 2 465 Kbps
    Encoded date : UTC 2011-08-15 11:32:49
    Tagged date : UTC 2011-08-15 11:32:49
    gsst : 0
    gstd : 5631080
    gssd : BADC203E1HH1324670460847922
    gshh : o-o.preferred.mad01s04.v11.lscache7.c.youtube.com

    Video
    ID : 1
    Format : AVC
    Format/Info : Advanced Video Codec
    Format profile : High@L3.1
    Format settings, CABAC : Yes
    Format settings, ReFrames : 1 frame
    Codec ID : avc1
    Codec ID/Info : Advanced Video Coding
    Duration : 1h 33mn
    Bit rate : 2 308 Kbps
    Maximum bit rate : 5 127 Kbps
    Width : 1 280 pixels
    Height : 720 pixels
    Display aspect ratio : 16:9
    Frame rate mode : Constant
    Frame rate : 25.000 fps
    Color space : YUV
    Chroma subsampling : 4:2:0
    Bit depth : 8 bits
    Scan type : Progressive
    Bits/(Pixel*Frame) : 0.100
    Stream size : 1.51 GiB (94%)
    Tagged date : UTC 2011-08-15 11:36:51

    Audio
    ID : 2
    Format : AAC
    Format/Info : Advanced Audio Codec
    Format profile : LC
    Codec ID : 40
    Duration : 1h 33mn
    Bit rate mode : Variable
    Bit rate : 152 Kbps
    Maximum bit rate : 232 Kbps
    Channel(s) : 2 channels
    Channel positions : Front: L R
    Sampling rate : 44.1 KHz
    Compression mode : Lossy
    Stream size : 102 MiB (6%)
    Title : IsoMedia File Produced by Google, 5-11-2011
    Encoded date : UTC 2011-08-15 11:33:42
    Tagged date : UTC 2011-08-15 11:36:51

  3. maty dice:

    Entrevistas:

    revistasculturales.com Entrevista a Gustavo Dudamel: “Quiero seguir luchando por cambiar la sociedad” Juan Antonio Llorente, Scherzo nº 212, Octubre 2006

    La Jornada La música cambia vidas; yo soy un ejemplo: Gustavo Dudamel Pablo Espinosa, 29.10.2007

    Insisto, aunque no gustéis de la música clásica habitualmente, dadle una oportunidad a esta grabación. Si es posible, con el televisor conectado a un buen equipo de sonido para apreciar mejor la música.

  4. maty dice:

    Muchos discrepan de la correcta dirección de la sinfonía:

    The Arts Desk BBC Proms: Simón Bolívar Symphony Orchestra, Dudamel Geoff Brown, 06.08.2011

    Aquí están más conformes:

    classicalsource.com Proms 2011 – Simón Bolívar SO/Gustavo Dudamel – Mahler’s Resurrection Symphony Peter Reed, 05.08.2011

    Mañana escucharé íntegra la versión DVD de Claudio Abbado y podré comparar las interpretaciones y el sonido.

    ***************** **************** **************** **************** **************** **************** ****************

    Con esta grabación parece existir unanimidad en cuanto a su excelencia:

    Blu-rayDefinition.com Mahler: Symphony No. 2 [Chailly/Leipzig Gewandhaus Orchestra] Blu-ray Review

    -> Amazon.co.uk Mahler Symphony No.2 [Blu-ray] [2011]

  5. maty dice:

    Si queréis Mahler por un tubo, Julio (Sentidos) ha compartido multitud de ripeos de grabaciones de referencia.

    Etiqueta Mahler

    Etiqueta Centenario Mahler

  6. maty dice:

    Google ES Gustavo Dudamel Mahler

    Por cierto, para los amantes de estas fiestas, Julio acaba de anotar:

    Sentidos ¡Feliz Navidad! Álbum de Navidad. Schwarzkopf. Mackerras. Philharmonia Orchestra. Ambrosian Singers. 1957.

    Donde he comentado cuál será mi próxima subida, que supongo os interesará:

  7. Estimado y querido amigo, que tengáis una Navidad llena de amor. Un año 2012 nuevo nos espera y os deseo para él las mayores bendiciones.
    Que todas las personas que siguen este espacio tuyo, todos tus amigos, familiares y seres queridos tengan unas navidades maravillosas.

  8. maty dice:

    Te agradezco Julio la felicitación, que en tu caso sé que son sinceras y sentidas, no una mera formalidad.

    Bueno, acabo de escuchar la versión DVD de Abbado. Antes el equipo ha estado funcionando durante cuarenta minutos. Después he vuelto a poner aceite lubricante en el eje de la rueda de volumen (he recogido el sobrante del otro día). Y he pasado una vez el Densen DeMagic. Así he asegurado las condiciones óptimas.

    La imagen no está mal, es la de DVD, con un poco de grano. La realización televisiva es la tradicional, muy inferior a la de la BBC. El sonido es peor, más difuso y menos nítido, lo habitual en la mayoría de las grabaciones de clásica.

    Me aburría, como suele sucederme inevitablemente con Mahler. Terminado el primer movimiento he saltado al final -a unos 8 minutos- cuando interviene el coro del Orfeón Donostiarra, que es la parte más emotiva. Mejora el sonido, lo que indica que el de la orquesta está peor recogido. Muy bien.

    Después he reproducido esa misma parte con el archivo en FLAC 0 16 bit / 48 Khz. Suena un poco distinto, las voces de las solistas más claras. Ah, antes había subido un nivel el corte del ecualizador a 60 Hz, pues notaba carencia de bajas frecuencias respecto a la versión de Dudamel. Cuando ha sonado el FLAC he notado que sobraba y lo he vuelto a plano.

    Ayer disfruté de todo el concierto, hoy sólo de los minutos finales.

    Ah, parecen dos sinfonías completamente distintas. Es comprensible que los amantes de la interpretación tradicional renieguen de la de Dudamel, no tan lánguida sino más emotiva y energética.

  9. maty dice:

    ¡Aleluya!

    Justo está sonando el Easter Alleluia de Elisabeth Schwarzkopf del ripeo de Julio (que recomiendo por su exquisitez!!!) y… encuentro el torrent gracias a San Google:

    Google ES BBC Proms 2011_29 Mahler 2 (Simon Bolivar Symphony Orchestra)

    Note: This torrent contains both a DVD ISO and an MP4 Video of the concert so I suggest you select whichever you prefer. The MP4@720p has the better video quality.

    BBC Proms 2011, Number 29
    Recorded 5 August
    Broadcast BBC2 6 August
    Thanks to GringoLoco & the BBC

    Mahler:
    Symphony No. 2 in C minor ‘Resurrection’ (85 mins)

    Miah Persson: soprano
    Anna Larsson: mezzo-soprano
    National Youth Choir of Great Britain
    Simon Bolívar Symphony Orchestra
    Gustavo Dudamel: conductor

    Commentary in English
    Fixed English subtitles for vocals

    Hummm… el audio del MP4

    Audio
    ID : 2
    Format : AAC
    Format/Info : Advanced Audio Codec
    Format profile : HE-AAC / LC
    Codec ID : 40
    Duration : 1h 42mn
    Bit rate mode : Variable
    Bit rate : 96.0 Kbps
    Channel(s) : 2 channels
    Channel positions : Front: L R
    Sampling rate : 48.0 KHz / 24.0 KHz
    Compression mode : Lossy
    Stream size : 69.2 MiB (3%)

    El audio del ISO del DVD

    Audio
    ID : 192 (0xC0)
    Format : MPEG Audio
    Format version : Version 1
    Format profile : Layer 2
    Bit rate mode : Constant
    Bit rate : 256 Kbps
    Channel(s) : 2 channels
    Sampling rate : 48.0 KHz
    Compression mode : Lossy

    Pues nada, bajo también el DVD a ver si el sonido es el mejor de todos y hago un montaje con el vídeo en MP4, ¿encapsulándolo en matroska .MKV con mkvmerge GUI 2.9.8?

"Age quod agis et bene agis" - Hagas lo que hagas, hazlo bien

Por favor, inicia sesión con uno de estos métodos para publicar tu comentario:

Logo de WordPress.com

Estás comentando usando tu cuenta de WordPress.com. Cerrar sesión / Cambiar )

Imagen de Twitter

Estás comentando usando tu cuenta de Twitter. Cerrar sesión / Cambiar )

Foto de Facebook

Estás comentando usando tu cuenta de Facebook. Cerrar sesión / Cambiar )

Google+ photo

Estás comentando usando tu cuenta de Google+. Cerrar sesión / Cambiar )

Conectando a %s